开启辅助访问
 找回密码
 立即注册

索尼4K演示片:世界遗产京都 - 日本历史文化千年古都、色彩浓郁![83mbps/1.39G]

#8K视频#时间:2023-05-23 阅读:195 回复:0
150203ttix9xqaqccgbalq.jpg.jpg 150203o6kjblhiy6r01e5y.jpg.jpg 150203lch69h0cgc06msfy.jpg.jpg 150203hgg916x99fxtpgl9.jpg.jpg 150204uvgyjgiy6i9vutvd.jpg.jpg 150204l3ucvngce9kevcc3.jpg.jpg 150204eoyne8jjfggkwejc.jpg.jpg 150204psr1zqwtr1lt7sw7.jpg.jpg



4K视频:
Complete name                  : G:[索尼.4K.演示片]世界遗产京都The World Heritage Kyoto.mkv
File size                      : 1.39 GiB
Duration                    : 2mn 23s
Overall bit rate          : 83.5 Mbps
Format                       : AVC
Bit rate                       : 83.4 Mbps
Width                         : 3 840 pixels
Height                        : 2 160 pixels
Display aspect ratio   : 16:9
Frame rate                  : 29.970 fps
Color space                : YUV
Chroma subsampling   : 4:2:0
Bit depth                    : 8 bits
Stream size                 : 1.39 GiB

Audio
Format                       : AAC
Codec ID                   : 40
Duration                    : 2mn 23s
Bit rate                       : 128 Kbps
Nominal bit rate        : 136 bps
Maximum bit rate     : 576 Kbps
Channel(s)                 : 2 channels
Channel positions     : Front: L R
Sampling rate           : 48.0 KHz
Stream size                : 2.18 MiB

京都曾作为日本的国都历时1000余年,享有“千年古都”之称。京都古称平安京,城市存在的历史可以追溯到7000年以前。
是体验日本文化旅游胜地。

索尼4K演示片:世界遗产京都 - 日本历史文化千年古都、色彩浓郁免费下载地址:


索尼4K演示片:世界遗产京都 - 日本历史文化千年古都、色彩浓郁.txt ( 175 Bytes )



登录 发布 快速回复 返回顶部 返回列表