开启辅助访问
 找回密码
 立即注册

IMAX.海豚 Dolphins 2000.Amazon.WEBRip.DD2.0.x264-TrollUHD【2160P/MKV/10.6GB】

#8K视频#时间:2023-05-23 阅读:286 回复:0
[4K IMAX 纪录片] 海豚 Dolphins 2000 [2160P/MKV/10.6GB]

150446njpl1l4wp2elpe41.jpg.jpg

译  名:海豚
片  名:Dolphins
年  代:2000
国  家:美国
类  别:纪录片 / 短片
语  言:英语
音        频:AC-3
视频尺寸:3840 x 2160
文件大小:10.6 GiB
上映日期:2000-04-14
IMDb评分:7.3/10 from 396 users
IMDb链接:http://www.imdb.com/title/tt0263278/
片  长:39 分钟
导  演:Greg MacGilliVRay
编       剧:Tim Cahill, Stephen Judson (as Steve Judson)
主  演:皮尔斯·布鲁斯南 Pierce Brosnan (旁述)
                  Alejandro Acevedo-Gutiérrez
                  Dean Bernal
                  Kathleen Dudzinski
                  Louis Herman
                  Bernd Wursig

简介:
本片获第73届奥斯卡金像奖最佳纪录短片
Experience how dolphins live and play, and unravel the mysteries of dolphin communication in this Academy Award-nominated IMAX film which takes you into the complex lives of these fascinating animals.

General
Unique ID : 194863134100775679965306770608112310244(0x92994645C66A6710AF13EDE6216497E4)
Complete name :IMAX.Dolphins.2000.2160p.Amazon.WEBRip.DD2.0.x264-TrollUHD.mkv
Format : Matroska
Format version : Version 4 / Version 2
File size : 10.6 GiB
Duration : 39mn 55s
Overall bit rate : 38.2 Mbps
Encoded date : UTC 2016-04-20 21:36:28
Writing application : mkvmerge v8.3.0 ('Over the Horizon') 64bit  
Writing library : libebml v1.3.1 + libmatroska v1.4.2

Video
ID : 1
Format : AVC
Format/Info : Advanced Video Codec
Format profile : High@L5.1
Format settings, CABAC : Yes
Format settings, ReFrames : 5 frames
Codec ID : V_MPEG4/ISO/AVC
Duration : 39mn 54s
Bit rate : 37.6 Mbps
Width : 3840 pixels
Height : 2160 pixels
Display aspect ratio : 16:9
Frame rate mode : Constant
Frame rate : 23.976 fps (24000/1001) fps
Color space : YUV
Chroma subsampling : 4:2:0
Bit depth : 8 bits
Scan type : Progressive
Bits/(Pixel*Frame) : 0.189
Stream size : 10.5 GiB (98%)
Writing library : x264 core 148 r2638 7599210
Encoding settings : cabac=1 / ref=5 / deblock=1:-1:-1 / analyse=0x3:0x133 / me=umh / subme=10 / psy=1 /  psy_rd=1.00:0.15 / mixed_ref=1 / me_range=48 / chroma_me=1 / trellis=2 / 8x8dct=1 / cqm=0 / deadzone=21,11 / fast_pskip=1 / chroma_qp_offset=-3 / threads=1
Default : Yes
Forced : No

Audio
ID : 2
Format : AC-3
Format/Info : Audio Coding 3
Mode extension : CM (complete main)
Format settings, Endianness : Big
Codec ID : A_AC3
Duration : 39mn 55s
Bit rate mode : Constant  
Bit rate : 640 Kbps  
Channel(s) : 2 channels
Channel positions : Front: L R
Sampling rate : 48.0 KHz
Frame rate : 31.250 fps (1536 spf)
Compression mode : Lossy
Stream size : 183 MiB (2%)
Language : English
Default : Yes
Forced : No



150446qu8qfaz4ppb1yn8n.jpg.jpg 150446tresdncdx3dnd64c.jpg.jpg

150446vn7b7q00n1jbjhnj.jpg.jpg 150446ot2zm81hy55p5k5h.jpg.jpg

150446l332xxqikhqkahtd.jpg.jpg 150447q66a5exo80x058uq.jpg.jpg

150447uhp5uw3ppv1yp593.jpg.jpg 150447w8t31r7nri8r9867.jpg.jpg

150447hofm9435bzobc52f.jpg.jpg 150447fns4b2k4y2nk6bbl.jpg.jpg



建议使用极速迅雷来高速下载!最高峰值12MB

IMAX.海豚 Dolphins 2000.Amazon.WEBRip.DD2.0.x264-TrollUHD【2160P/MKV/10.6GB】BT种子文件下载:

IMAX.海豚 Dolphins 2000.2160p.Amazon.WEBRip-TrollUHD.torrent ( 27.38 KB )



登录 发布 快速回复 返回顶部 返回列表