开启辅助访问
 找回密码
 立即注册

[4K超清纪录片]众神的花园 - 卡帕多西亚[2160P/MKV/3.53GB] 百度云

#8K视频#时间:2023-05-23 阅读:256 回复:0
众神的花园 - 卡帕多西亚[2160P/MKV/3.53GB]


150729woog1m7toi1zq2u2.jpg.jpg 150729zs7tnp7ns8n7ncnh.jpg.jpg 150729u0wbwzlidk29b294.jpg.jpg 150729gx9j6e8egjy3x6y6.jpg.jpg 150730hodpwron8eos889n.jpg.jpg 150730urmz4pgm4nj2zptr.jpg.jpg 150730mp4o3geeikl6infe.jpg.jpg 150730c5x5ne5wgxxxtvw0.jpg.jpg 150730xrm2z33znpi5gg5q.jpg.jpg 150730e7yt14683z1g3jpy.jpg.jpg


General
Unique ID : 234736695142761077127441742074465811760(0xB098A49D1A3E6C82BC22A237909CFD30)
Complete name : Garden of the Gods - Cappadocia (4K 2160p UHDTV HEVC AC3 En) Lotos2007.mkv
Format version : Version 4 / Version 2
File size : 3.53 GiB
Duration : 39mn 11s
Overall bit rate : 12.9 Mbps
Encoded date : UTC 2016-01-08 09:51:42
Writing application : mkvmerge v8.2.0 ('World of Adventure') 32bit  
Writing library : libebml v1.3.1 + libmatroska v1.4.2

Video
ID : 1
Format : HEVC
Format/Info : High Efficiency Video Coding
Format profile : High@L5.1@Main
Codec ID : V_MPEGH/ISO/HEVC
Duration : 39mn 11s
Bit rate : 12.5 Mbps
Width : 3840 pixels
Height : 2160 pixels
Display aspect ratio : 16:9
Frame rate mode : Constant
Frame rate : 25.000 fps
Original frame rate : 50.000 fps
Color space : YUV
Chroma subsampling : 4:2:0
Bit depth : 10 bits
Bits/(Pixel*Frame) : 0.060
Stream size : 3.41 GiB (97%)
Writing library : x264 1.7:[Mac OS X][clang 5.1.0][64 bit] 16bpp
Encoding settings : wpp/ctu=64/min-cu-size=8/max-tu-size=32/tu-inter-depth=1/me=1/psy=1/ subme=2/merange=57/no-rect/no-amp/max-merge=2/temporal-mvp/no-early-skip/ rdpenalty=0/no-tskip/no-tskip-fast/strong-intra-smoot
Default : Yes
Forced : No

Audio
Format : AC-3
Format/Info : Audio Coding 3
Mode extension : CM (complete main)
Format settings, Endianness : Big
Codec ID : A_AC3
Duration : 39min 11s
Bit rate mode : Constant  
Bit rate : 448 Kbps  
Channel(s) : 2 channels
Channel positions : Front: L R
Sampling rate : 48.0 KHz
Frame rate : 31.250 fps (1536 spf)
Compression mode : Lossy
Stream size : 126 MiB (3%)


众神的花园 - 卡帕多西亚[2160P/MKV/3.53GB] 百度云下载:

[4K超清纪录片]众神的花园 - 卡帕多西亚[2160PMKV3.53GB] 百度云下载.txt ( 312 Bytes )



登录 发布 快速回复 返回顶部 返回列表