开启辅助访问
 找回密码
 立即注册
飞越童真 豆瓣评分: 7.0分 年份: 更早 片长: 93 分钟 地区: 美国  类型: 喜剧 爱情  格式: 4K SDR  音轨: DTS-HD.MA 5.1  导演: 艾米·海克林 主演: 约翰·特拉沃尔塔 / 柯尔斯蒂·艾利 / 奥林匹娅·杜卡基斯 / 乔治·席格
预告片欣赏
取消
简介 :

  莫莉(柯尔斯蒂·艾利 Kirstie Alley 饰)是一名平凡的设计师,在一次工作中,她结识了名为艾尔伯特(乔治·席格 George Segal 饰)的男子。虽然艾尔伯特已经有了家室,但莫莉还是无可救药的爱上了他。两人逾越了道德的界限走到了一起。不久之后,莫莉的腹中怀上了艾尔伯特的孩子,莫莉打算将孩子生下来,她坚信艾尔伯特不会亏待他们母子两人。  然而事与愿违,艾尔伯特竟然无情的抛弃了这一对孤儿寡母。走投无路的莫莉决定一定要给自己的孩子寻找一个靠谱的父亲,如此想着她邂逅了名为詹姆斯(约翰·特拉沃尔塔 John Travolta 饰)的出租车司机。就在莫莉和詹姆斯之间的距离越来越近之际,艾尔伯特回到了莫莉的身边。

  • 电影下载
  • 资源INFO
  • 下载说明
  • 《飞越童真》4k电影 · 网盘/云盘/BT 下载  Cloud storage / Cloud disk / BT download

  • 《飞越童真》电影INFO  Video INFO
    Video
    ID : 1
    Format : HEVC
    Format/Info : High Efficiency Video Coding
    Format profile : Main@L5@High
    Codec ID : V_MPEGH/ISO/HEVC
    Duration : 1 h 35 min
    Bit rate : 14.9 Mb/s
    Width : 3 840 pixels
    Height : 2 160 pixels
    Display aspect ratio : 16:9
    Frame rate mode : Constant
    Frame rate : 23.976 (24000/1001) FPS
    Color space : YUV
    Chroma subsampling : 4:2:0
    Bit depth : 8 bits
    Bits/(Pixel*Frame) : 0.075
    Stream size : 9.99 GiB (78%)
    Default : Yes
    Forced : No
    Color range : Limited
    Color primaries : BT.709
    Transfer characteristics : BT.709
    Matrix coefficients : BT.709

    Audio #1
    ID : 2
    Format : DTS XLL
    Format/Info : Digital Theater Systems
    Commercial name : DTS-HD Master Audio
    Codec ID : A_DTS
    Duration : 1 h 35 min
    Bit rate mode : Variable
    Bit rate : 3 522 kb/s
    Channel(s) : 6 channels
    Channel layout : C L R Ls Rs LFE
    Sampling rate : 48.0 kHz
    Frame rate : 93.750 FPS (512 SPF)
    Bit depth : 24 bits
    Compression mode : Lossless
    Stream size : 2.36 GiB (18%)
    Title : DTS-HD MA 5.1
    Language : English
    Default : Yes
    Forced : No

    Audio #2
    ID : 3
    Format : AC-3
    Format/Info : Audio Coding 3
    Commercial name : Dolby Digital
    Codec ID : A_AC3
    Duration : 1 h 35 min
    Bit rate mode : Constant
    Bit rate : 640 kb/s
    Channel(s) : 6 channels
    Channel layout : L R C LFE Ls Rs
    Sampling rate : 48.0 kHz
    Frame rate : 31.250 FPS (1536 SPF)
    Compression mode : Lossy
    Stream size : 439 MiB (3%)
    Title : DD 5.1
    Language : English
    Service kind : Complete Main
    Default : No
    Forced : No

    Text #1
    ID : 4
    Format : UTF-8
    Codec ID : S_TEXT/UTF8
    Codec ID/Info : UTF-8 Plain Text
    Duration : 1 h 33 min
    Bit rate : 96 b/s
    Frame rate : 0.276 FPS
    Count of elements : 1552
    Stream size : 66.4 KiB (0%)
    Title : English (SDH)
    Language : English
    Default : No
    Forced : No

    Text #2
    ID : 5
    Format : PGS
    Muxing mode : zlib
    Codec ID : S_HDMV/PGS
    Codec ID/Info : Picture based subtitle format used on BDs/HD-DVDs
    Duration : 1 h 33 min
    Bit rate : 45.0 kb/s
    Frame rate : 0.602 FPS
    Count of elements : 3380
    Stream size : 30.1 MiB (0%)
    Title : SDH
    Language : English
    Default : No
    Forced : No

    Text #3
    ID : 6
    Format : PGS
    Muxing mode : zlib
    Codec ID : S_HDMV/PGS
    Codec ID/Info : Picture based subtitle format used on BDs/HD-DVDs
    Duration : 1 h 34 min
    Bit rate : 35.5 kb/s
    Frame rate : 0.466 FPS
    Count of elements : 2636
    Stream size : 23.9 MiB (0%)
    Language : French
    Default : No
    Forced : No

    Text #4
    ID : 7
    Format : PGS
    Muxing mode : zlib
    Codec ID : S_HDMV/PGS
    Codec ID/Info : Picture based subtitle format used on BDs/HD-DVDs
    Duration : 1 h 30 min
    Bit rate : 39.6 kb/s
    Frame rate : 0.470 FPS
    Count of elements : 2546
    Stream size : 25.5 MiB (0%)
    Language : Spanish
    Default : No
    Forced : No

    Menu
    00:00:00.000 : Chapter 01
    00:10:01.017 : Chapter 02
    00:20:01.825 : Chapter 03
    00:30:02.217 : Chapter 04
    00:40:03.233 : Chapter 05
    00:50:03.541 : Chapter 06
    01:00:03.682 : Chapter 07
    01:10:04.949 : Chapter 08
    01:20:05.675 : Chapter 09
    01:30:06.234 : Chapter 10



    《飞越童真》4k电影 · 网盘/云盘/BT 下载  Cloud storage / Cloud disk / BT download
  • 下载本版资源三步骤
    1、在《4K电影列表》找到并打开电影下载页,点击下载框按钮或复制磁力链,将BT种子下载到电脑中。
    2、电脑安装《BT下载软件》,免费的推荐使用《UTorrent》下载,收费的推荐使用《115网盘》下载(速度又快又稳).
    3、用BT下载软件,打开BT种子、或将磁力链复制粘贴到BT软件中即可下载。


    下载速度慢怎么办
    1、正常情况使用《UTorrent》跟着网站发布资源节奏下载速度很快,可以达到宽带最大速度(电信)
    2、推荐使用《115网盘》下载速度又快又稳定,请勿使用迅雷下载;
    3、下载慢是有多方面原因,即依赖种子的热度、也要求是电信宽带(非移动/联通),同时选择对的下载软件和软件设置方法。
    4、使用BT协议下载没有速度,请更新《Trackers服务器》能够增加在线用户(越多越好),该方法使用《UTorrent》下载效果显著。
    更多下载问题参考: 4K电影下载新手学院>>

    多个种子/电影版本区别
    蓝光原盘BDMV
    俗称4K蓝光原盘,也就是从4K UHD蓝光碟中提取出来的源文件,由多个m2ts文件组成,与正版盘完全一致,且包含了光盘所有内容 (影片花絮、字幕、导航菜单、多语言多音轨、HDR 信息)等等,文件体积大,一部电影约有60GB+。此版本资源一般以「BDMV 文件夹」或「BDISO」 (iso) 格式发布;该版本可以用刻录机成带导航的光盘效果。

    DIY蓝光原盘BDMV
    经资源制作组基于蓝光原盘BDMV版本进行第二次DIY的版本,将片头AE特效、画面HDR调色、封装国语音轨、封装中文简体/繁体/英文等多语言字幕,更精彩的是是特效字幕(将电影画面中某些细节翻译成中文字幕)。

    蓝光BD-REMUX
    俗称REMUX,可以视为「音画质无损的精简版」"4K原盘",它其实就是将原盘里多余的一些音轨、花絮、菜单、字幕等东西移除或精简,仅保留主要的视频、主要音轨和部分语言字幕,然后再封装成「单个文件」的 .mkv 格式而来,其音质画质与BDMV蓝光原盘一致,但文件体积上能大幅缩减且成单个文件,在电脑上播放/管理/电视播放/播放器播放和分享起来也更方便。适合追求原盘音画质、不重视花絮周边内容、又希望稍微节省点硬盘空间的朋友。

    WEB-DL/WEBRip/流媒体版本
    WEB-DL 或 WEBRip 格式的影片主要来自 、Amazon Prime Video、Netflix、Hulu、YouTube 等「在线网络高清片源」。尽管这些服务提供了4K分辨率 (部分含 HDR) 的片源,但它们为了在线观看的流畅性,都会将视频画质进行较大幅度「有损压缩」。 WEB-DL 是 Web Download 的意思,指通过技术手段「直接下载」回来的在线视频 WEBRip 很多时候则是通过"屏幕转录"等方式二次录制,会造成多一次的画质损失。



    《飞越童真》4k电影 · 网盘/云盘/BT 下载  Cloud storage / Cloud disk / BT download
飞越童真4k.Look.Whos.Talking.1989.2160p.WEB-DL.x265.8bit.SDR.DTS-HD.MA.5.1-电影下载

飞越童真4k.Look.Whos.Talking.1989.2160p.WEB-DL.x265.8bit.SDR.DTS-HD.MA.5.1【12.82 GB】

Look.Whos.Talking.1989.2160p.WEB-DL.x265.8bit.SDR.DTS-HD.MA.5.1-NOGRP.torrent ( 16.57 KB )




最新回复
还没人回复...
登录 发布 快速回复 返回顶部 返回列表