开启辅助访问
 找回密码
 立即注册
疾速追杀4 豆瓣评分: 8.0分 年份: 2023年 片长: 169 分钟 地区: 美国  类型: 动作 惊悚 犯罪  格式: 4K HDR  音轨: Dolby TrueHD 5.1 Dolby Atmos  导演: 查德·斯塔赫斯基 主演: 基努·里维斯 / 甄子丹 / 比尔·斯卡斯加德 / 劳伦斯·菲什伯恩 / 真田广之
预告片欣赏
取消
简介 :

  刺客约翰·威克的冒险仍在继续。

  • 电影下载
  • 资源INFO
  • 下载说明
  • 《疾速追杀4》4k电影 · 网盘/云盘/BT 下载  Cloud storage / Cloud disk / BT download

  • 《疾速追杀4》电影INFO  Video INFO
    Video
    ID : 1
    Format : HEVC
    Format/Info : High Efficiency Video Coding
    Format profile : Main 10@L5@High
    HDR format : Dolby Vision, Version 1.0, dvhe.08.06, BL+RPU, HDR10 compatible / SMPTE ST 2094 App 4, Version 1, HDR10+ Profile B compatible
    Codec ID : V_MPEGH/ISO/HEVC
    Duration : 2 h 49 min
    Bit rate : 24.2 Mb/s
    Width : 3 828 pixels
    Height : 1 592 pixels
    Display aspect ratio : 2.40:1
    Frame rate mode : Constant
    Frame rate : 23.976 (24000/1001) FPS
    Color space : YUV
    Chroma subsampling : 4:2:0 (Type 2)
    Bit depth : 10 bits
    Bits/(Pixel*Frame) : 0.166
    Stream size : 28.7 GiB (97%)
    Language : English
    Default : Yes
    Forced : No
    Color range : Limited
    Color primaries : BT.2020
    Transfer characteristics : PQ
    Matrix coefficients : BT.2020 non-constant
    Mastering display color primaries : BT.2020
    Mastering display luminance : min: 0.0050 cd/m2, max: 1000 cd/m2
    Maximum Content Light Level : 2458 cd/m2
    Maximum Frame-Average Light Level : 636 cd/m2

    Audio
    ID : 2
    Format : E-AC-3 JOC
    Format/Info : Enhanced AC-3 with Joint Object Coding
    Commercial name : Dolby Digital Plus with Dolby Atmos
    Codec ID : A_EAC3
    Duration : 2 h 49 min
    Bit rate mode : Constant
    Bit rate : 768 kb/s
    Channel(s) : 6 channels
    Channel layout : L R C LFE Ls Rs
    Sampling rate : 48.0 kHz
    Frame rate : 31.250 FPS (1536 SPF)
    Compression mode : Lossy
    Stream size : 930 MiB (3%)
    Language : English
    Service kind : Complete Main
    Default : Yes
    Forced : No
    Complexity index : 16
    Number of dynamic objects : 15
    Bed channel count : 1 channel
    Bed channel configuration : LFE

    Text #1
    ID : 3
    Format : UTF-8
    Codec ID : S_TEXT/UTF8
    Codec ID/Info : UTF-8 Plain Text
    Duration : 2 h 39 min
    Bit rate : 21 b/s
    Frame rate : 0.111 FPS
    Count of elements : 1063
    Stream size : 25.4 KiB (0%)
    Language : English
    Default : No
    Forced : No

    Text #2
    ID : 4
    Format : UTF-8
    Codec ID : S_TEXT/UTF8
    Codec ID/Info : UTF-8 Plain Text
    Duration : 2 h 48 min
    Bit rate : 28 b/s
    Frame rate : 0.158 FPS
    Count of elements : 1594
    Stream size : 34.9 KiB (0%)
    Title : SDH
    Language : English
    Default : No
    Forced : No

    Text #3
    ID : 5
    Format : UTF-8
    Codec ID : S_TEXT/UTF8
    Codec ID/Info : UTF-8 Plain Text
    Duration : 2 h 37 min
    Bit rate : 22 b/s
    Frame rate : 0.111 FPS
    Count of elements : 1050
    Stream size : 26.3 KiB (0%)
    Language : French (FR)
    Default : No
    Forced : No

    Menu
    00:00:00.000 : en:Chapter 01
    00:13:44.532 : en:Chapter 02
    00:25:42.292 : en:Chapter 03
    00:38:32.604 : en:Chapter 04
    00:51:26.294 : en:Chapter 05
    01:06:42.002 : en:Chapter 06
    01:22:05.216 : en:Chapter 07
    01:36:19.738 : en:Chapter 08
    01:50:58.575 : en:Chapter 09
    02:04:17.415 : en:Chapter 10
    02:17:52.939 : en:Chapter 11
    02:27:14.000 : en:Chapter 12
    02:39:02.792 : en:Chapter 13



    《疾速追杀4》4k电影 · 网盘/云盘/BT 下载  Cloud storage / Cloud disk / BT download
  • 下载本版资源三步骤
    1、在《4K电影列表》找到并打开电影下载页,点击下载框按钮或复制磁力链,将BT种子下载到电脑中。
    2、电脑安装《BT下载软件》,免费的推荐使用《UTorrent》下载,收费的推荐使用《115网盘》下载(速度又快又稳).
    3、用BT下载软件,打开BT种子、或将磁力链复制粘贴到BT软件中即可下载。


    下载速度慢怎么办
    1、正常情况使用《UTorrent》跟着网站发布资源节奏下载速度很快,可以达到宽带最大速度(电信)
    2、推荐使用《115网盘》下载速度又快又稳定,请勿使用迅雷下载;
    3、下载慢是有多方面原因,即依赖种子的热度、也要求是电信宽带(非移动/联通),同时选择对的下载软件和软件设置方法。
    4、使用BT协议下载没有速度,请更新《Trackers服务器》能够增加在线用户(越多越好),该方法使用《UTorrent》下载效果显著。
    更多下载问题参考: 4K电影下载新手学院>>

    多个种子/电影版本区别
    蓝光原盘BDMV
    俗称4K蓝光原盘,也就是从4K UHD蓝光碟中提取出来的源文件,由多个m2ts文件组成,与正版盘完全一致,且包含了光盘所有内容 (影片花絮、字幕、导航菜单、多语言多音轨、HDR 信息)等等,文件体积大,一部电影约有60GB+。此版本资源一般以「BDMV 文件夹」或「BDISO」 (iso) 格式发布;该版本可以用刻录机成带导航的光盘效果。

    DIY蓝光原盘BDMV
    经资源制作组基于蓝光原盘BDMV版本进行第二次DIY的版本,将片头AE特效、画面HDR调色、封装国语音轨、封装中文简体/繁体/英文等多语言字幕,更精彩的是是特效字幕(将电影画面中某些细节翻译成中文字幕)。

    蓝光BD-REMUX
    俗称REMUX,可以视为「音画质无损的精简版」"4K原盘",它其实就是将原盘里多余的一些音轨、花絮、菜单、字幕等东西移除或精简,仅保留主要的视频、主要音轨和部分语言字幕,然后再封装成「单个文件」的 .mkv 格式而来,其音质画质与BDMV蓝光原盘一致,但文件体积上能大幅缩减且成单个文件,在电脑上播放/管理/电视播放/播放器播放和分享起来也更方便。适合追求原盘音画质、不重视花絮周边内容、又希望稍微节省点硬盘空间的朋友。

    WEB-DL/WEBRip/流媒体版本
    WEB-DL 或 WEBRip 格式的影片主要来自 、Amazon Prime Video、Netflix、Hulu、YouTube 等「在线网络高清片源」。尽管这些服务提供了4K分辨率 (部分含 HDR) 的片源,但它们为了在线观看的流畅性,都会将视频画质进行较大幅度「有损压缩」。 WEB-DL 是 Web Download 的意思,指通过技术手段「直接下载」回来的在线视频 WEBRip 很多时候则是通过"屏幕转录"等方式二次录制,会造成多一次的画质损失。



    《疾速追杀4》4k电影 · 网盘/云盘/BT 下载  Cloud storage / Cloud disk / BT download
杀神John Wick4(港) / 捍卫任务4(台) / 疾速对决 / 疾速反击/疾速追杀4 4k.John.Wick.Chapter.4.2023.2160p.WEB-DL.DDP5.1.Atmos.HDR10Plus.H.265-电影下载

疾速追杀4 4k John.Wick.Chapter.4.2023.2160p.UHD.Blu-ray.DoVi.HDR10.HEVC.Atmos.TrueHD.7.1【蓝光原盘-HEVC 89.91GB】

疾速追杀4 4K John.Wick.Chapter.4.2023.2160p.UHD.Blu-ray.DoVi.HDR10.HEVC.Atmos.TrueHD.7.1.torrent ( 199.23 KB )


疾速追杀4 4k.John.Wick.Chapter.4.2023.2160p.UHD.Bluray.REMUX.DV.HDR10.HEVC.TrueHD.Atmos.7.1【蓝光BD-REMUX 74.20 GB】

John.Wick.Chapter.4.2023.2160p.UHD.Bluray.REMUX.DV.HDR10.HEVC.TrueHD.Atmos.7.1-GHD[TGx].torrent ( 191.56 KB )


疾速追杀4 4k.John.Wick.Chapter.4.2023.2160p.WEB-DL.DDP5.1.Atmos.HDR10Plus.H.265【HDR 29.57 GB】

疾速追杀4 4k.John.Wick.Chapter.4.2023.2160p.WEB-DL.DDP5.1.Atmos.HDR10Plus.H.265-CM-.torrent ( 37.63 KB )


疾速追杀4 4k.John.Wick.Chapter.4.2023.2160p.WEB-DL.x265.10bit.SDR.DDP5.1.Atmos【SDR 25.10 GB】

John.Wick.Chapter.4.2023.2160p.WEB-DL.DDP5.1.Atmos.H.265-CM.torrent ( 31.94 KB )


疾速追杀4 4k.John.Wick.Chapter.4.2023.2160p.WEB-DL.DDP5.1.Atmos.DV.MKV.x265【杜比视界】【17.90 GB】

John.Wick.Chapter.4.2023.2160p.WEB-DL.DDP5.1.Atmos.DV.MKV.x265-DVSUX.torrent ( 22.95 KB )


疾速追杀4 4k.John.Wick.Chapter.4.2023.2160p.WEB-DL.DDP5.1.Atmos.DV.MP4.x265【杜比视界】【17.90 GB】

John.Wick.Chapter.4.2023.2160p.WEB-DL.DDP5.1.Atmos.DV.MP4.x265-DVSUX.torrent ( 22.95 KB )



疾速追杀4 4k电影中文字幕下载

疾速追杀4 John Wick Chapter 4 2023中文字幕.zip ( 84.36 KB )







最新回复
dickyfcc| 2023-5-27 11:11:52 来自手机 | 显示全部楼层
谢謝分享,,,,,,,,,,
登录 发布 快速回复 返回顶部 返回列表