开启辅助访问
 找回密码
 立即注册
致命诱惑 豆瓣评分: 6.5 状态: 第一季(完结) 画质标准: 4K(3840x2160) 音轨声道: 其他DD   5.1声道 日期: 2023-04-30 地区: 美国  类型: 剧情 惊悚  导演: 未知 主演: 丽兹·卡潘 / 乔舒亚·杰克逊 / 阿曼达·皮特
预告片欣赏
取消
简介 :

  本剧是同内核、同基础设定的电影IP重塑剧集,不是对1987年原电影的直接翻拍。
  剧本根据Alexandra Cunningham和Kevin J. Hynes合写的故事创作,讲述Alex在一场短暂的婚外情后,迷恋上了自己的情人Dan。剧集将从现代对女强人、人格障碍和强制控制的态度出发,探索永恒的主题:婚姻和不忠。
  1987年电影中,Glenn Close饰演Alex,Michael Douglas饰演Dan,Anne Archer饰演Dan的妻子。...

  • 剧集下载
  • 资源INFO
  • 下载说明
  • 《致命诱惑》4k剧集 · 网盘/云盘/BT 下载  Cloud storage / Cloud disk / BT download
      隐藏内容
  • 《致命诱惑》影片INFO  Video INFO
    Video
    ID : 1
    Format : HEVC
    Format/Info : High Efficiency Video Coding
    Format profile : Main 10@L5@Main
    HDR format : SMPTE ST 2094 App 4, Version 1, HDR10+ Profile B compatible
    Codec ID : V_MPEGH/ISO/HEVC
    Duration : 53 min 58 s
    Bit rate : 13.9 Mb/s
    Width : 3 840 pixels
    Height : 2 160 pixels
    Display aspect ratio : 16:9
    Frame rate mode : Constant
    Frame rate : 23.976 (24000/1001) FPS
    Color space : YUV
    Chroma subsampling : 4:2:0 (Type 2)
    Bit depth : 10 bits
    Bits/(Pixel*Frame) : 0.070
    Stream size : 5.26 GiB (99%)
    Default : Yes
    Forced : No
    Color range : Full
    Color primaries : BT.2020
    Transfer characteristics : PQ
    Matrix coefficients : BT.2020 non-constant
    Mastering display color primaries : Display P3
    Mastering display luminance : min: 0.0001 cd/m2, max: 1000 cd/m2

    Audio
    ID : 2
    Format : E-AC-3
    Format/Info : Enhanced AC-3
    Commercial name : Dolby Digital Plus
    Codec ID : A_EAC3
    Duration : 53 min 59 s
    Bit rate mode : Constant
    Bit rate : 192 kb/s
    Channel(s) : 6 channels
    Channel layout : L R C LFE Ls Rs
    Sampling rate : 48.0 kHz
    Frame rate : 31.250 FPS (1536 SPF)
    Compression mode : Lossy
    Stream size : 74.1 MiB (1%)
    Language : English
    Service kind : Complete Main
    Default : Yes
    Forced : No

    Text
    ID : 3
    Format : UTF-8
    Codec ID : S_TEXT/UTF8
    Codec ID/Info : UTF-8 Plain Text
    Duration : 53 min 39 s
    Bit rate : 86 b/s
    Count of elements : 1074
    Stream size : 33.9 KiB (0%)
    Title : English (United States)
    Language : English
    Default : No
    Forced : No



    《致命诱惑》4k剧集 · 网盘/云盘/BT 下载  Cloud storage / Cloud disk / BT download
      隐藏内容
  • 下载本版资源三步骤
    1、在《4K电视剧列表》找到并打开剧集下载页,点击下载框按钮或复制磁力链,将BT种子下载到电脑中。
    2、电脑安装《BT下载软件》,免费的推荐使用《UTorrent》下载,收费的推荐使用《115网盘》下载(速度又快又稳).
    3、用BT下载软件,打开BT种子、或将磁力链复制粘贴到BT软件中即可下载。


    下载速度慢怎么办
    1、正常情况使用《UTorrent》跟着网站发布资源节奏下载速度很快,可以达到宽带最大速度(电信)
    2、推荐使用《115网盘》下载速度又快又稳定,请勿使用迅雷下载;
    3、下载慢是有多方面原因,即依赖种子的热度、也要求是电信宽带(非移动/联通),同时选择对的下载软件和软件设置方法。
    4、使用BT协议下载没有速度,请更新《Trackers服务器》能够增加在线用户(越多越好),该方法使用《UTorrent》下载效果显著。
    更多下载问题参考: 4K电影下载新手学院>>

    多个种子/电影版本区别
    蓝光原盘BDMV
    俗称4K蓝光原盘,也就是从4K UHD蓝光碟中提取出来的源文件,由多个m2ts文件组成,与正版盘完全一致,且包含了光盘所有内容 (影片花絮、字幕、导航菜单、多语言多音轨、HDR 信息)等等,文件体积大,一部电影约有60GB+。此版本资源一般以「BDMV 文件夹」或「BDISO」 (iso) 格式发布;该版本可以用刻录机成带导航的光盘效果。

    DIY蓝光原盘BDMV
    经资源制作组基于蓝光原盘BDMV版本进行第二次DIY的版本,将片头AE特效、画面HDR调色、封装国语音轨、封装中文简体/繁体/英文等多语言字幕,更精彩的是是特效字幕(将电影画面中某些细节翻译成中文字幕)。

    蓝光BD-REMUX
    俗称REMUX,可以视为「音画质无损的精简版」"4K原盘",它其实就是将原盘里多余的一些音轨、花絮、菜单、字幕等东西移除或精简,仅保留主要的视频、主要音轨和部分语言字幕,然后再封装成「单个文件」的 .mkv 格式而来,其音质画质与BDMV蓝光原盘一致,但文件体积上能大幅缩减且成单个文件,在电脑上播放/管理/电视播放/播放器播放和分享起来也更方便。适合追求原盘音画质、不重视花絮周边内容、又希望稍微节省点硬盘空间的朋友。

    WEB-DL/WEBRip/流媒体版本
    WEB-DL 或 WEBRip 格式的影片主要来自 、Amazon Prime Video、Netflix、Hulu、YouTube 等「在线网络高清片源」。尽管这些服务提供了4K分辨率 (部分含 HDR) 的片源,但它们为了在线观看的流畅性,都会将视频画质进行较大幅度「有损压缩」。 WEB-DL 是 Web Download 的意思,指通过技术手段「直接下载」回来的在线视频 WEBRip 很多时候则是通过"屏幕转录"等方式二次录制,会造成多一次的画质损失。



    《致命诱惑》4k剧集 · 网盘/云盘/BT 下载  Cloud storage / Cloud disk / BT download
      隐藏内容
致命诱惑 第一季4k.Fatal.Attraction.2023.S01E01.HDR.2160p.WEB.h265-4k美剧下载

第1集
致命诱惑 第一季4k.Fatal.Attraction.2023.S01E01.HDR.2160p.WEB.h265【HDR】【5.43 GB】
磁力链下载:magnet:?xt=urn:btih:2ee3deac0d71b0e17e270ae375ca4cb3ea229e06&dn

致命诱惑 第一季4k.Fatal.Attraction.2023.S01E01.2160p.WEB-DL.DDP5.1.DV.MKV.x265【杜比视界】【5.40 GB】
磁力链下载:magnet:?xt=urn:btih:1b32a6ab16574eb8f0993dd2d572afcb38c895ba&dn

第2集
致命诱惑 第一季4k.Fatal.Attraction.2023.S01E02.HDR.2160p.WEB.h265【HDR】【5.93 GB】
磁力链下载:magnet:?xt=urn:btih:068a22a993a31978d934cd09ede1d0b0d2def9eb&dn

致命诱惑 第一季4k.Fatal.Attraction.2023.S01E02.2160p.WEB-DL.DDP5.1.DV.MKV.x265【杜比视界】【5.98 GB】
磁力链下载:magnet:?xt=urn:btih:dc4d482a5373f316187cacdfe367588d18cf5f11&dn

第3集
致命诱惑 第一季4k.Fatal.Attraction.2023.S01E03.HDR.2160p.WEB.h265【HDR】【5.96 GB】
磁力链下载:magnet:?xt=urn:btih:185de4288bb11b7b5db0e9b9dee4d1a453294d64&dn

致命诱惑 第一季4k.Fatal.Attraction.2023.S01E03.2160p.WEB-DL.DDP5.1.DV.MKV.x265【杜比视界】【5.91 GB】
磁力链下载:magnet:?xt=urn:btih:bf09ca5cf9293326b7a1f87d7781ef71215966db&dn

第4集
致命诱惑 第一季4k.Fatal.Attraction.2023.S01E04.HDR.2160p.WEB.H265【HDR】【6.03 GB】
磁力链下载:magnet:?xt=urn:btih:ccdc5ca24c7116a4073c571f217a36a355a43df5&dn

致命诱惑 第一季4k.Fatal.Attraction.2023.S01E04.2160p.WEB-DL.DDP5.1.DV.MKV.x265【杜比视界】【6.09 GB】
磁力链下载:magnet:?xt=urn:btih:2036c81b543ce39f649cafaf26d47e322b7fc07f&dn

第5集
致命诱惑 第一季4k.Fatal.Attraction.2023.S01E05.HDR.2160p.WEB.H265【HDR】【6.10 GB】
磁力链下载:magnet:?xt=urn:btih:136a268d488eab069e482ba3542d6faf4eb7fecd&dn

致命诱惑 第一季4k.Fatal.Attraction.2023.S01E05.2160p.WEB-DL.DDP5.1.DV.MKV.x265【杜比视界】【6.17 GB】
磁力链下载:magnet:?xt=urn:btih:8e4ebbedb9d8206cc98be55a178971ae62889013&dn

第6集
致命诱惑 第一季4k.Fatal.Attraction.2023.S01E06.HDR.2160p.WEB.H265【HDR】【5.93 GB】
磁力链下载:magnet:?xt=urn:btih:1541ef1040a2bf780a6eddf65306c8075f331113&dn

致命诱惑 第一季4k.Fatal.Attraction.2023.S01E06.2160p.PMTP.WEB-DL.DDP5.1.DV.MKV.x265【杜比视界】【6.18 GB】
磁力链下载:magnet:?xt=urn:btih:67c47fa1df79bfc06fd41925e75ef51b37cc7e1b&dn

第7集
致命诱惑 第一季4k.Fatal.Attraction.2023.S01E07.HDR.2160p.WEB.H265【HDR】【6.14 GB】
磁力链下载:magnet:?xt=urn:btih:a5ba20f488b4ea3ab4722c7b64d6b18edbbc7aa4&dn

致命诱惑 第一季4k.Fatal.Attraction.2023.S01E07.2160p.WEB-DL.DDP5.1.DV.MKV.x265【杜比视界】【6.18 GB】
磁力链下载:magnet:?xt=urn:btih:6aff2d8d2a039d420cdd08f5e2f1a79ef4b87f3c&dn

第8集
致命诱惑 第一季4k.Fatal.Attraction.2023.S01E08.HDR.2160p.WEB.H265【HDR】【6.27GB】
磁力链下载:magnet:?xt=urn:btih:54f26fb3d81c5d184286f387f291a797247d2a6e&dn

致命诱惑 第一季4k.Fatal.Attraction.2023.S01E08.2160p.WEB-DL.DDP5.1.DV.MKV.x265【杜比视界】【6.33 GB】
磁力链下载:magnet:?xt=urn:btih:07372b921267ea8cf40f4b1bf9411c42a1c26eff&dn

最新回复
还没人回复...
登录 发布 快速回复 返回顶部 返回列表