开启辅助访问
 找回密码
 立即注册

地球脉动2 4K 98G版 DIY次世代台配+简体字幕 百度云

#8K视频#时间:2023-05-24 阅读:226 回复:0
221607r8kgcl6szl1k9ktt.jpg.jpg     221604sck0xudciuuu4vxe.jpg.jpg      221606vmslrgll7ozonamo.jpg.jpg      221606oagqwn5gnngjwudj.jpg.jpg
附件:[attach]D:\火车浏览器\4kii\4k8k视频\2023-04-25\地球脉动第二季 98G DIY台配 国语字幕.txt[/attach]
附件:[attach]D:\火车浏览器\4kii\4k8k视频\2023-04-25\地球脉动第二季 98G DIY台配 国语字幕.txt[/attach]
第一集INFO
General
Unique ID                      : 13457689260382421720673334363038442572 (0xA1FDB4EE9FF6EFD6113BE492858644C)
Complete name                  : G:\地球脉动第二季 4k 炫机\01\Planet.Earth.II.S01E01.Islands.2160p.BluRay.REMUX.HEVC.DTS-HD.MA.5.1-FGT.mkv
Format                         : Matroska
Format version                 : Version 4 / Version 2
File size                      : 17.4 GiB
Duration                       : 53 min 4 s
Overall bit rate               : 46.9 Mb/s
Encoded date                   : UTC 2019-03-24 03:20:47
Writing application            : mkvmerge v25.0.0 ('Prog Noir') 64-bit
Writing library                : libebml v1.3.6 + libmatroska v1.4.9
Cover                          : Yes
Attachments                    : cover.jpg / cover_land.jpg / small_cover.jpg / small_cover_land.jpg
附件:[attach]D:\火车浏览器\4kii\4k8k视频\2023-04-25\地球脉动第二季 98G DIY台配 国语字幕.txt[/attach]
Video
ID                             : 1
Format                         : HEVC
Format/Info                    : High Efficiency Video Coding
Commercial name                : HDR10
Format profile                 : Main 10@L5.1@High
Codec ID                       : V_MPEGH/ISO/HEVC
Duration                       : 53 min 4 s
Bit rate                       : 43.0 Mb/s
Width                          : 3 840 pixels
Height                         : 2 160 pixels
Display aspect ratio           : 16:9
Frame rate mode                : Constant
Frame rate                     : 23.976 (24000/1001) FPS
Color space                    : YUV
Chroma subsampling             : 4:2:0 (Type 2)
Bit depth                      : 10 bits
Bits/(Pixel*Frame)             : 0.216
Stream size                    : 16.0 GiB (92%)
Default                        : Yes
Forced                         : No
Color range                    : Limited
Color primaries                : BT.2020
Transfer characteristics       : PQ
Matrix coefficients            : BT.2020 non-constant
Mastering display color primar : R: x=0.000000 y=0.000000, G: x=0.000000 y=0.000000, B: x=0.000000 y=0.000000, White point: x=0.000000 y=0.000000
Mastering display luminance    : min: 0.0000 cd/m2, max: 0 cd/m2
附件:[attach]D:\火车浏览器\4kii\4k8k视频\2023-04-25\地球脉动第二季 98G DIY台配 国语字幕.txt[/attach]
Audio #1
ID                             : 2
Format                         : DTS
Format/Info                    : Digital Theater Systems
Codec ID                       : A_DTS
Duration                       : 53 min 3 s
Bit rate mode                  : Constant
Bit rate                       : 1 510 kb/s
Channel(s)                     : 6 channels
Channel positions              : Front: L C R, Side: L R, LFE
Sampling rate                  : 48.0 kHz
Frame rate                     : 93.750 FPS (512 SPF)
Bit depth                      : 24 bits
Compression mode               : Lossy
Stream size                    : 573 MiB (3%)
Language                       : Chineses
Default                        : Yes
Forced                         : Yes
附件:[attach]D:\火车浏览器\4kii\4k8k视频\2023-04-25\地球脉动第二季 98G DIY台配 国语字幕.txt[/attach]
Audio #2
ID                             : 3
Format                         : DTS
Format/Info                    : Digital Theater Systems
Format profile                 : MA / Core
Codec ID                       : A_DTS
Duration                       : 53 min 4 s
Bit rate mode                  : Variable / Constant
Bit rate                       : 2 301 kb/s / 1 509 kb/s
Channel(s)                     : 6 channels
Channel positions              : Front: L C R, Side: L R, LFE
Sampling rate                  : 48.0 kHz
Frame rate                     : 93.750 FPS (512 SPF)
Bit depth                      : 16 bits
Compression mode               : Lossless / Lossy
Stream size                    : 873 MiB (5%)
Language                       : English
Default                        : No
Forced                         : No
附件:[attach]D:\火车浏览器\4kii\4k8k视频\2023-04-25\地球脉动第二季 98G DIY台配 国语字幕.txt[/attach]
Text
ID                             : 4
Format                         : PGS
Muxing mode                    : zlib
Codec ID                       : S_HDMV/PGS
Codec ID/Info                  : Picture based subtitle format used on BDs/HD-DVDs
Duration                       : 52 min 18 s
Bit rate                       : 25.1 kb/s
Count of elements              : 710
Stream size                    : 9.39 MiB (0%)
Default                        : Yes
Forced                         : No
附件:[attach]D:\火车浏览器\4kii\4k8k视频\2023-04-25\地球脉动第二季 98G DIY台配 国语字幕.txt[/attach]
Menu
00:00:00.000                   : en:Chapter 1
00:12:26.245                   : en:Chapter 2
00:18:49.253                   : en:Chapter 3
00:33:45.023                   : en:Chapter 4
00:43:04.582                   : en:Chapter 5
附件:[attach]D:\火车浏览器\4kii\4k8k视频\2023-04-25\地球脉动第二季 98G DIY台配 国语字幕.txt[/attach]
应坛友需求,将85G版本的台配重制以匹配98G原盘/remux,加上次世代台配及国语字幕后视频总大小超过101G,并上传百度云。这可能是你目前能找到的最完美版本《地球脉动2》,因重制耗费大量时间及精力,本人不会再重制央视版

地球脉动第二季 98G DIY台配 国语字幕.txt ( 147 Bytes )

地球脉动第二季 98G DIY台配 国语字幕.txt

147 Bytes, 下载积分: 收藏币 -8

登录 发布 快速回复 返回顶部 返回列表