开启辅助访问
 找回密码
 立即注册

YouTube Perfect Color HDR 12k Dolby Vision.mp4-154MB

#8K视频#时间:2023-05-24 阅读:173 回复:0

201640rtlls46z3lstsuxt.jpg.jpg


影片参数
General
Complete name                  : E:\CRTubeGet Downloaded\Mix - Eugene Belsky\6. Perfect Color HDR 12k Dolby Vision.mp4
Format                         : MPEG-4
Format profile                 : Base Media
Codec ID                       : isom (isom/iso2/mp41)
File size                      : 155 MiB
Duration                       : 2 min 18 s
Overall bit rate               : 9 389 kb/s
Writing application            : Lavf58.29.100


Video
ID                             : 1
Format                         : AV1
Format/Info                    : AOMedia Video 1
Format profile                 : Main@L6.0
Codec ID                       : av01
Duration                       : 2 min 18 s
Bit rate                       : 9 260 kb/s
Width                          : 7 680 pixels
Height                         : 4 320 pixels
Display aspect ratio           : 16:9
Frame rate mode                : Constant
Frame rate                     : 23.976 (24000/1001) FPS
Color space                    : YUV
Chroma subsampling             : 4:2:0
Bit depth                      : 10 bits
Bits/(Pixel*Frame)             : 0.012
Stream size                    : 153 MiB (99%)
Title                          : ISO Media file produced by Google Inc.
Color range                    : Limited
Color primaries                : BT.2020
Transfer characteristics       : PQ
Matrix coefficients            : BT.2020 non-constant
Codec configuration box        : av1C


Audio
ID                             : 2
Format                         : AAC LC
Format/Info                    : Advanced Audio Codec Low Complexity
Codec ID                       : mp4a-40-2
Duration                       : 2 min 18 s
Bit rate mode                  : Constant
Bit rate                       : 128 kb/s
Channel(s)                     : 2 channels
Channel layout                 : L R
Sampling rate                  : 44.1 kHz
Frame rate                     : 43.066 FPS (1024 SPF)
Compression mode               : Lossy
Stream size                    : 2.11 MiB (1%)
Title                          : ISO Media file produced by Google Inc.
Default                        : Yes
Alternate group                : 1


蓝光高清网提示您  点击下方附件名称即可开始下载



YouTube Perfect Color HDR 12k Dolby Vision.mp4-154MB

Perfect Color HDR 12k Dolby Vision.txt ( 134 Bytes )


登录 发布 快速回复 返回顶部 返回列表