开启辅助访问
 找回密码
 立即注册

Hong Kong in 8K ULTRA HD - World's Brightest city (60 FPS).mp4 - 2.02GB

#8K视频#时间:2023-05-24 阅读:212 回复:0

110644agz4orfqu44qrwmv.jpg.jpg


影片参数
General
Format                         : MPEG-4
Format profile                 : Base Media
Codec ID                       : isom (isom/iso2/mp41)
File size                      : 2.05 GiB
Duration                       : 10 min 13 s
Overall bit rate               : 28.6 Mb/s
Writing application            : Lavf58.29.100


Video
ID                             : 1
Format                         : AV1
Format/Info                    : AOMedia Video 1
Format profile                 : Main@L6.1
Codec ID                       : av01
Duration                       : 10 min 13 s
Bit rate                       : 28.5 Mb/s
Width                          : 7 680 pixels
Height                         : 4 320 pixels
Display aspect ratio           : 16:9
Frame rate mode                : Constant
Frame rate                     : 60.000 FPS
Color space                    : YUV
Chroma subsampling             : 4:2:0
Bit depth                      : 8 bits
Bits/(Pixel*Frame)             : 0.014
Stream size                    : 2.04 GiB (100%)
Title                          : ISO Media file produced by Google Inc.
Color range                    : Limited
Color primaries                : BT.709
Transfer characteristics       : BT.709
Matrix coefficients            : BT.709
Codec configuration box        : av1C


Audio
ID                             : 2
Format                         : AAC LC
Format/Info                    : Advanced Audio Codec Low Complexity
Codec ID                       : mp4a-40-2
Duration                       : 10 min 13 s
Bit rate mode                  : Constant
Bit rate                       : 128 kb/s
Channel(s)                     : 2 channels
Channel layout                 : L R
Sampling rate                  : 44.1 kHz
Frame rate                     : 43.066 FPS (1024 SPF)
Compression mode               : Lossy
Stream size                    : 9.37 MiB (0%)
Title                          : ISO Media file produced by Google Inc.
Language                       : English
Default                        : Yes
Alternate group                : 1









Hong Kong in 8K ULTRA HD - World's Brightest city (60 FPS).mp4 - 2.02GB

Hong Kong in 8K ULTRA HD - Worlds Brightest city 60 FPS.mp4 - 2.02GB.txt ( 134 Bytes )


登录 发布 快速回复 返回顶部 返回列表