开启辅助访问
 找回密码
 立即注册

Norway in 8K 60 FPS ULTRA HD HDR - Most peaceful Country in the World.mp4 2.36

#8K视频#时间:2023-05-24 阅读:197 回复:0
140042mekuf804iiv2o7z4.jpg.jpg


影片参数
General
Format                         : MPEG-4
Format profile                 : Base Media
Codec ID                       : isom (isom/iso2/mp41)
File size                      : 2.36 GiB
Duration                       : 20 min 0 s
Overall bit rate               : 16.9 Mb/s
Writing application            : Lavf58.29.100


Video
ID                             : 1
Format                         : AV1
Format/Info                    : AOMedia Video 1
Format profile                 : Main@L6.1
Codec ID                       : av01
Duration                       : 20 min 0 s
Bit rate                       : 16.8 Mb/s
Width                          : 7 680 pixels
Height                         : 4 320 pixels
Display aspect ratio           : 16:9
Frame rate mode                : Constant
Frame rate                     : 60.000 FPS
Color space                    : YUV
Chroma subsampling             : 4:2:0
Bit depth                      : 8 bits
Bits/(Pixel*Frame)             : 0.008
Stream size                    : 2.34 GiB (99%)
Title                          : ISO Media file produced by Google Inc.
Color range                    : Limited
Color primaries                : BT.2020
Transfer characteristics       : PQ
Matrix coefficients            : BT.2020 non-constant
Codec configuration box        : av1C


Audio
ID                             : 2
Format                         : AAC LC
Format/Info                    : Advanced Audio Codec Low Complexity
Codec ID                       : mp4a-40-2
Duration                       : 20 min 0 s
Bit rate mode                  : Constant
Bit rate                       : 128 kb/s
Channel(s)                     : 2 channels
Channel layout                 : L R
Sampling rate                  : 44.1 kHz
Frame rate                     : 43.066 FPS (1024 SPF)
Compression mode               : Lossy
Stream size                    : 18.3 MiB (1%)
Title                          : ISO Media file produced by Google Inc.
Default                        : Yes
Alternate group                : 1








Norway in 8K  60 FPS ULTRA HD HDR - Most peaceful Country in the World.mp4  2.36GB

Norway in 8K 60 FPS ULTRA HD HDR - Most peaceful Country in the World.mp4 2.36GB.txt ( 225 Bytes )


登录 发布 快速回复 返回顶部 返回列表