开启辅助访问
 找回密码
 立即注册

(120 FPS) 8K Videos _ Collection of World's nature UltraHD 793MB

#8K视频#时间:2023-05-24 阅读:252 回复:0

114406cqufq8tfnyqyux85.jpg.jpg


影片参数
General
Complete name                  : E:\CRTubeGet Downloaded\Mix - 8K World\17. 8K Videos _ Collection of World's nature  UltraHD (120 FPS).mp4
Format                         : MPEG-4
Format profile                 : Base Media
Codec ID                       : isom (isom/iso2/mp41)
File size                      : 793 MiB
Duration                       : 4 min 28 s
Overall bit rate mode          : Variable
Overall bit rate               : 24.8 Mb/s
Writing application            : Lavf58.29.100


Video
ID                             : 1
Format                         : AV1
Format/Info                    : AOMedia Video 1
Format profile                 : Main@L6.1
Codec ID                       : av01
Duration                       : 4 min 28 s
Bit rate                       : 24.6 Mb/s
Width                          : 7 680 pixels
Height                         : 4 320 pixels
Display aspect ratio           : 16:9
Frame rate mode                : Constant
Frame rate                     : 60.000 FPS
Color space                    : YUV
Chroma subsampling             : 4:2:0
Bit depth                      : 8 bits
Bits/(Pixel*Frame)             : 0.012
Stream size                    : 789 MiB (99%)
Title                          : ISO Media file produced by Google Inc.
Color range                    : Limited
Color primaries                : BT.709
Transfer characteristics       : BT.709
Matrix coefficients            : BT.709
Codec configuration box        : av1C


Audio
ID                             : 2
Format                         : AAC LC
Format/Info                    : Advanced Audio Codec Low Complexity
Codec ID                       : mp4a-40-2
Duration                       : 4 min 28 s
Bit rate mode                  : Constant
Bit rate                       : 128 kb/s
Channel(s)                     : 2 channels
Channel layout                 : L R
Sampling rate                  : 44.1 kHz
Frame rate                     : 43.066 FPS (1024 SPF)
Compression mode               : Lossy
Stream size                    : 4.10 MiB (1%)
Title                          : ISO Media file produced by Google Inc.
Language                       : English
Default                        : Yes
Alternate group                : 1


Text
ID                             : 3
Format                         : Timed Text
Muxing mode                    : sbtl
Codec ID                       : tx3g
Duration                       : 4 min 28 s
Bit rate mode                  : Variable
Bit rate                       : 4 b/s
Stream size                    : 143 Bytes (0%)
Language                       : English
Default                        : Yes
Forced                         : No
Alternate group                : 3









(120 FPS) 8K Videos _ Collection of World's nature  UltraHD  793MB

120 FPS 8K Videos _ Collection of Worlds nature UltraHD 793MB.txt ( 225 Bytes )


登录 发布 快速回复 返回顶部 返回列表