开启辅助访问
 找回密码
 立即注册

Asia _ Raw Beauty - (120 FPS) 8K HDR UltraHD—1.08GB

#8K视频#时间:2023-05-24 阅读:175 回复:0
103854m4h5cgl1t1kgfz74.jpg.jpg


影片参数
General
Format                         : MPEG-4
Format profile                 : Base Media
Codec ID                       : isom (isom/iso2/mp41)
File size                      : 1.08 GiB
Duration                       : 5 min 1 s
Overall bit rate               : 30.8 Mb/s
Writing application            : Lavf58.29.100


Video
ID                             : 1
Format                         : AV1
Format/Info                    : AOMedia Video 1
Format profile                 : Main@L6.1
Codec ID                       : av01
Duration                       : 5 min 1 s
Bit rate                       : 30.7 Mb/s
Width                          : 7 680 pixels
Height                         : 4 320 pixels
Display aspect ratio           : 16:9
Frame rate mode                : Constant
Frame rate                     : 60.000 FPS
Color space                    : YUV
Chroma subsampling             : 4:2:0
Bit depth                      : 8 bits
Bits/(Pixel*Frame)             : 0.015
Stream size                    : 1.08 GiB (100%)
Title                          : ISO Media file produced by Google Inc.
Color range                    : Limited
Color primaries                : BT.709
Transfer characteristics       : BT.709
Matrix coefficients            : BT.709
Codec configuration box        : av1C


Audio
ID                             : 2
Format                         : AAC LC
Format/Info                    : Advanced Audio Codec Low Complexity
Codec ID                       : mp4a-40-2
Duration                       : 5 min 1 s
Bit rate mode                  : Constant
Bit rate                       : 128 kb/s
Channel(s)                     : 2 channels
Channel layout                 : L R
Sampling rate                  : 44.1 kHz
Frame rate                     : 43.066 FPS (1024 SPF)
Compression mode               : Lossy
Stream size                    : 4.60 MiB (0%)
Title                          : ISO Media file produced by Google Inc.
Language                       : English
Default                        : Yes
A
lternate group                : 1



104005kzad009746ozm987.png.jpg

104034eiljhhkyhl7nfljk.png.jpg







Asia _ Raw Beauty - (120 FPS) 8K HDR UltraHD—1.08GB
链接:https://pan.baidu.com/s/1IhjmFwWBdOSRR5WFG1n7Mw
提取码:
游客,如果您要查看本帖隐藏内容请回复



登录 发布 快速回复 返回顶部 返回列表