开启辅助访问
 找回密码
 立即注册

8K [60 FPS]VIDEO ULTRA HD - Collection of Animals (IV) -2.48GB

#8K视频#时间:2023-05-24 阅读:219 回复:0
104234ekdgqbkqqu9znanz.jpg.jpg

影片参数
General
Complete name                  : E:\CRTubeGet Downloaded\Mix - 8K World\21. 8K VIDEO ULTRA HD - Collection of Animals (IV) [60 FPS].mp4
Format                         : MPEG-4
Format profile                 : Base Media
Codec ID                       : isom (isom/iso2/mp41)
File size                      : 2.48 GiB
Duration                       : 15 min 33 s
Overall bit rate               : 22.9 Mb/s
Writing application            : Lavf58.29.100


Video
ID                             : 1
Format                         : AV1
Format/Info                    : AOMedia Video 1
Format profile                 : Main@L6.1
Codec ID                       : av01
Duration                       : 15 min 32 s
Bit rate                       : 22.7 Mb/s
Width                          : 7 680 pixels
Height                         : 4 320 pixels
Display aspect ratio           : 16:9
Frame rate mode                : Constant
Frame rate                     : 60.000 FPS
Color space                    : YUV
Chroma subsampling             : 4:2:0
Bit depth                      : 8 bits
Bits/(Pixel*Frame)             : 0.011
Stream size                    : 2.47 GiB (99%)
Title                          : ISO Media file produced by Google Inc.
Color range                    : Limited
Color primaries                : BT.709
Transfer characteristics       : BT.709
Matrix coefficients            : BT.709
Codec configuration box        : av1C


Audio
ID                             : 2
Format                         : AAC LC
Format/Info                    : Advanced Audio Codec Low Complexity
Codec ID                       : mp4a-40-2
Duration                       : 15 min 33 s
Bit rate mode                  : Constant
Bit rate                       : 128 kb/s
Channel(s)                     : 2 channels
Channel layout                 : L R
Sampling rate                  : 44.1 kHz
Frame rate                     : 43.066 FPS (1024 SPF)
Compression mode               : Lossy
Stream size                    : 14.2 MiB (1%)
Title                          : ISO Media file produced by Google Inc.
Language                       : English
Default                        : Yes
Alternate group                : 1


104357x18mzkx85228hkhj.png.jpg
104412qkwaw3g3e9ewbnzy.png.jpg








8K [60 FPS]VIDEO ULTRA HD - Collection of Animals (IV) -2.48GB

8K VIDEO ULTRA HD - Collection of Animals IV [60 FPS].txt ( 134 Bytes )


登录 发布 快速回复 返回顶部 返回列表