开启辅助访问
 找回密码
 立即注册

8K (60 FPS) VIDEOS _ Beauty of WorldHDR UltraHD _ 8K Demo 825MB

#8K视频#时间:2023-05-24 阅读:276 回复:0

121452ktshwhy6mt8t8ptt.jpg.jpg


影片参数
General
Format                         : MPEG-4
Format profile                 : Base Media
Codec ID                       : isom (isom/iso2/mp41)
File size                      : 853 MiB
Duration                       : 4 min 24 s
Overall bit rate mode          : Variable
Overall bit rate               : 27.0 Mb/s
Writing application            : Lavf58.29.100


Video
ID                             : 1
Format                         : AV1
Format/Info                    : AOMedia Video 1
Format profile                 : Main@L6.1
Codec ID                       : av01
Duration                       : 4 min 24 s
Bit rate                       : 26.9 Mb/s
Width                          : 7 680 pixels
Height                         : 4 320 pixels
Display aspect ratio           : 16:9
Frame rate mode                : Constant
Frame rate                     : 60.000 FPS
Color space                    : YUV
Chroma subsampling             : 4:2:0
Bit depth                      : 8 bits
Bits/(Pixel*Frame)             : 0.014
Stream size                    : 849 MiB (99%)
Title                          : ISO Media file produced by Google Inc.
Color range                    : Limited
Color primaries                : BT.709
Transfer characteristics       : BT.709
Matrix coefficients            : BT.709
Codec configuration box        : av1C


Audio
ID                             : 2
Format                         : AAC LC
Format/Info                    : Advanced Audio Codec Low Complexity
Codec ID                       : mp4a-40-2
Duration                       : 4 min 24 s
Bit rate mode                  : Constant
Bit rate                       : 128 kb/s
Channel(s)                     : 2 channels
Channel layout                 : L R
Sampling rate                  : 44.1 kHz
Frame rate                     : 43.066 FPS (1024 SPF)
Compression mode               : Lossy
Stream size                    : 4.04 MiB (0%)
Title                          : ISO Media file produced by Google Inc.
Language                       : English
Default                        : Yes
Alternate group                : 1


Text
ID                             : 3
Format                         : Timed Text
Muxing mode                    : sbtl
Codec ID                       : tx3g
Duration                       : 4 min 23 s
Bit rate mode                  : Variable
Bit rate                       : 16 b/s
Stream size                    : 517 Bytes (0%)
Language                       : English
Default                        : Yes
Forced                         : No
Alternate group                : 3

121637qhcicbkhlvluhbnh.png.jpg 121658ywwmiew63vitrvrr.png.jpg








8K  (60 FPS)   VIDEOS _ Beauty of WorldHDR UltraHD _ 8K Demo 825MB

8K 60 FPS VIDEOS _ Beauty of WorldHDR UltraHD _ 8K Demo 825MB.txt ( 143 Bytes )




登录 发布 快速回复 返回顶部 返回列表