开启辅助访问
 找回密码
 立即注册

8K(60p)VIDEOS UltraHD _ Realistic 8K HDR _ Demo 916MB

#8K视频#时间:2023-05-24 阅读:226 回复:0
125723czku2uayer4bern4.jpg.jpg

影片参数
General
Format                         : MPEG-4
Format profile                 : Base Media
Codec ID                       : isom (isom/iso2/mp41)
File size                      : 917 MiB
Duration                       : 5 min 19 s
Overall bit rate mode          : Variable
Overall bit rate               : 24.1 Mb/s
Writing application            : Lavf58.29.100


Video
ID                             : 1
Format                         : AV1
Format/Info                    : AOMedia Video 1
Format profile                 : Main@L6.1
Codec ID                       : av01
Duration                       : 5 min 18 s
Bit rate                       : 24.0 Mb/s
Width                          : 7 680 pixels
Height                         : 4 320 pixels
Display aspect ratio           : 16:9
Frame rate mode                : Constant
Frame rate                     : 60.000 FPS
Color space                    : YUV
Chroma subsampling             : 4:2:0
Bit depth                      : 8 bits
Bits/(Pixel*Frame)             : 0.012
Stream size                    : 912 MiB (99%)
Title                          : ISO Media file produced by Google Inc.
Color range                    : Limited
Color primaries                : BT.709
Transfer characteristics       : BT.709
Matrix coefficients            : BT.709
Codec configuration box        : av1C


Audio
ID                             : 2
Format                         : AAC LC
Format/Info                    : Advanced Audio Codec Low Complexity
Codec ID                       : mp4a-40-2
Duration                       : 5 min 18 s
Bit rate mode                  : Constant
Bit rate                       : 128 kb/s
Channel(s)                     : 2 channels
Channel layout                 : L R
Sampling rate                  : 44.1 kHz
Frame rate                     : 43.066 FPS (1024 SPF)
Compression mode               : Lossy
Stream size                    : 4.87 MiB (1%)
Title                          : ISO Media file produced by Google Inc.
Language                       : English
Default                        : Yes
Alternate group                : 1


Text
ID                             : 3
Format                         : Timed Text
Muxing mode                    : sbtl
Codec ID                       : tx3g
Duration                       : 5 min 19 s
Bit rate mode                  : Variable
Bit rate                       : 4 b/s
Stream size                    : 141 Bytes (0%)
Language                       : English
Default                        : Yes
Forced                         : No
Alternate group                : 3


125908qlz8l9e498a78kzo.png.jpg 125922dh8c8hhxx49t6zm6.png.jpg 125943o4bbnnsd9snarmz4.png.jpg






8K(60p)VIDEOS UltraHD  _ Realistic 8K HDR  _ Demo 916MB

8K60pVIDEOS UltraHD _ Realistic 8K HDR _ Demo 916MB.txt ( 143 Bytes )


登录 发布 快速回复 返回顶部 返回列表