开启辅助访问
 找回密码
 立即注册

世界之美THE BEAUTY OF THE WORLD in 8K ULTRA HD-5.55GB

#8K视频#时间:2023-05-24 阅读:141 回复:0
130357urpccjuimi9padp2.jpg.jpg

影片参数
General
Format                         : MPEG-4
Format profile                 : Base Media
Codec ID                       : isom (isom/iso2/mp41)
File size                      : 5.56 GiB
Duration                       : 27 min 50 s
Overall bit rate               : 28.6 Mb/s
Writing application            : Lavf58.29.100


Video
ID                             : 1
Format                         : AV1
Format/Info                    : AOMedia Video 1
Format profile                 : Main@L6.0
Codec ID                       : av01
Duration                       : 27 min 21 s
Bit rate                       : 28.9 Mb/s
Width                          : 7 680 pixels
Height                         : 4 320 pixels
Display aspect ratio           : 16:9
Frame rate                     : 28.302 FPS
Color space                    : YUV
Chroma subsampling             : 4:2:0
Bit depth                      : 8 bits
Bits/(Pixel*Frame)             : 0.031
Stream size                    : 5.53 GiB (100%)
Title                          : ISO Media file produced by Google Inc.
Color range                    : Limited
Color primaries                : BT.709
Transfer characteristics       : BT.709
Matrix coefficients            : BT.709
Codec configuration box        : av1C


Audio
ID                             : 2
Format                         : AAC LC
Format/Info                    : Advanced Audio Codec Low Complexity
Codec ID                       : mp4a-40-2
Duration                       : 27 min 50 s
Bit rate mode                  : Constant
Bit rate                       : 128 kb/s
Channel(s)                     : 2 channels
Channel layout                 : L R
Sampling rate                  : 44.1 kHz
Frame rate                     : 43.066 FPS (1024 SPF)
Compression mode               : Lossy
Stream size                    : 25.5 MiB (0%)
Title                          : ISO Media file produced by Google Inc.
Language                       : English
Default                        : Yes
Alternate group                : 1


130522cn96reedn1ke9h9z.png.jpg 130541o9zoop0or5ev7ocz.png.jpg 130611eb4b9r39odz73z9d.png.jpg 130648w1g1eeukfkkkag4u.png.jpg






世界之美THE BEAUTY OF THE WORLD in 8K ULTRA HD-5.55GB

「世界之美THE BEAUTY OF TH...D in 8K ULTRA HD.mp4」.txt ( 205 Bytes )



登录 发布 快速回复 返回顶部 返回列表