开启辅助访问
 找回密码
 立即注册

歐洲巡演 8K 超高清TOUR AROUND EUROPE 8K ULTRA HD-12.2GB

#8K视频#时间:2023-05-24 阅读:195 回复:0


173548augr7qwekkqkryy7.jpg.jpg

影片参数

General
Format                         : MPEG-4
Format profile                 : Base Media
Codec ID                       : isom (isom/iso2/mp41)
File size                      : 12.2 GiB
Duration                       : 56 min 52 s
Overall bit rate               : 30.8 Mb/s
Movie name                     : TOUR AROUND EUROPE 8K ULTRA HD
Performer                      : 8K VIDEOS ULTRA HD
Description                    : In this video in 8K resolution we will take a trip around Europe. We are going to know the best places in Europe and the most beautiful for traveling and sightseeing. / Europe is made up of fifty sovereign states; Seven non-sovereign territories and regions; Four partially recognized republics, territories and regions; and Two unrecognized republics, territories and regions. / The most popular tourist destination countries of Europe include France, Spain, Italy, Greece, Switzerland, Germany, Ireland, Scotland and England. Although, some of the lesser traveled countries such as Sweden, Russia, Slovakia, Turkey, Portugal and Belgium hold priceless historical and natural treasures that are not to be missed. / The most unique feature of Europe is the proximity of all of its countries. France is surrounded by Spain, England, Belgium, Netherlands, Switzerland, Italy, the Mediterranean Sea and Atlantic Ocean. You can easily hop a plane, or even better, ride the rail to any of these countries in a short period of time. Stepping foot from one country to another provides an instantaneous feeling of change. Nowhere else in the world can you see so many different cultures, ecosystems and natural and man-made beauty all in one relatively small area. Many European countries are home to the most cultured of all civilizations. They live their lives full of tradition through their architecture, many arts, history and the nature. /  / In this 8K video you will find: / 0:00 INTRO / 0:16 FRANCE / 2:15 GERMANY / 4:39 SWITZERLAND / 7:58 AUSTRIA / 11:40 SPAIN / 14:29 GREECE / 16:29 ITALY / 18:51 DENMARK / 20:49 NETHERLANDS / 23:14 UKRAINE / 25:19 POLAND / 27:10 ROMANIA / 29:44 BELGIUM / 31:06 CZECH REPUBLIC / 34:05 PORTUGAL / 37:57 SWEDEN / 39:55 HUNGARY / 42:55 ENGLAND / 45:40 SERBIA / 47:01 FINLAND / 49:03 SLOVAKIA / 50:52 NORWAY / 52:32 CROATIA / 53:59 ALBANIA /  / Follow me: / ►YouTube:
LongDescription                : In this video in 8K resolution we will take a trip around Europe. We are going to know the best places in Europe and the most beautiful for traveling and sightseeing. / Europe is made up of fifty sovereign states; Seven non-sovereign territories and regions; Four partially recognized republics, territories and regions; and Two unrecognized republics, territories and regions. / The most popular tourist destination countries of Europe include France, Spain, Italy, Greece, Switzerland, Germany, Ireland, Scotland and England. Although, some of the lesser traveled countries such as Sweden, Russia, Slovakia, Turkey, Portugal and Belgium hold priceless historical and natural treasures that are not to be missed. / The most unique feature of Europe is the proximity of all of its countries. France is surrounded by Spain, England, Belgium, Netherlands, Switzerland, Italy, the Mediterranean Sea and Atlantic Ocean. You can easily hop a plane, or even better, ride the rail to any of these countries in a short period of time. Stepping foot from one country to another provides an instantaneous feeling of change. Nowhere else in the world can you see so many different cultures, ecosystems and natural and man-made beauty all in one relatively small area. Many European countries are home to the most cultured of all civilizations. They live their lives full of tradition through their architecture, many arts, history and the nature. /  / In this 8K video you will find: / 0:00 INTRO / 0:16 FRANCE / 2:15 GERMANY / 4:39 SWITZERLAND / 7:58 AUSTRIA / 11:40 SPAIN / 14:29 GREECE / 16:29 ITALY / 18:51 DENMARK / 20:49 NETHERLANDS / 23:14 UKRAINE / 25:19 POLAND / 27:10 ROMANIA / 29:44 BELGIUM / 31:06 CZECH REPUBLIC / 34:05 PORTUGAL / 37:57 SWEDEN / 39:55 HUNGARY / 42:55 ENGLAND / 45:40 SERBIA / 47:01 FINLAND / 49:03 SLOVAKIA / 50:52 NORWAY / 52:32 CROATIA / 53:59 ALBANIA /  / Follow me: / ►YouTube:

Video
ID                             : 1
Format                         : AV1
Format/Info                    : AOMedia Video 1
Format profile                 : Main@L6.0
Codec ID                       : av01
Duration                       : 56 min 51 s
Bit rate                       : 30.6 Mb/s
Width                          : 7 680 pixels
Height                         : 4 320 pixels
Display aspect ratio           : 16:9
Frame rate mode                : Constant
Frame rate                     : 30.000 FPS
Color space                    : YUV
Chroma subsampling             : 4:2:0
Bit depth                      : 8 bits
Bits/(Pixel*Frame)             : 0.031
Stream size                    : 12.2 GiB (100%)
Title                          : ISO Media file produced by Google Inc.
Color range                    : Limited
Color primaries                : BT.709
Transfer characteristics       : BT.709
Matrix coefficients            : BT.709
Menus                          : 3
Codec configuration box        : av1C


Audio
ID                             : 2
Format                         : AAC LC
Format/Info                    : Advanced Audio Codec Low Complexity
Codec ID                       : mp4a-40-2
Duration                       : 56 min 51 s
Bit rate mode                  : Constant
Bit rate                       : 128 kb/s
Channel(s)                     : 2 channels
Channel layout                 : L R
Sampling rate                  : 44.1 kHz
Frame rate                     : 43.066 FPS (1024 SPF)
Compression mode               : Lossy
Stream size                    : 52.1 MiB (0%)
Title                          : ISO Media file produced by Google Inc.
Language                       : English
Default                        : Yes
Alternate group                : 1
Menus                          : 3


Menu #1
ID                             : 3
Codec ID                       : text
Duration                       : 56 min 52 s
Language                       : English
Menu For                       : 1,2
00:00:00.000                   : INTRO
00:00:16.000                   : FRANCE
00:02:15.000                   : GERMANY
00:04:39.000                   : SWITZERLAND
00:07:58.000                   : AUSTRIA
00:11:40.000                   : SPAIN
00:14:29.000                   : GREECE
00:16:29.000                   : ITALY
00:18:51.000                   : DENMARK
00:20:49.000                   : NETHERLANDS
00:23:14.000                   : UKRAINE
00:25:19.000                   : POLAND
00:27:10.000                   : ROMANIA
00:29:44.000                   : BELGIUM
00:31:06.000                   : CZECH REPUBLIC
00:34:05.000                   : PORTUGAL
00:37:57.000                   : SWEDEN
00:39:55.000                   : HUNGARY
00:42:55.000                   : ENGLAND
00:45:40.000                   : SERBIA
00:47:01.000                   : FINLAND
00:49:03.000                   : SLOVAKIA
00:50:52.000                   : NORWAY
00:52:32.000                   : CROATIA
00:53:59.000                   : ALBANIA


Menu #2
00:00:00.000                   : INTRO
00:00:16.000                   : FRANCE
00:02:15.000                   : GERMANY
00:04:39.000                   : SWITZERLAND
00:07:58.000                   : AUSTRIA
00:11:40.000                   : SPAIN
00:14:29.000                   : GREECE
00:16:29.000                   : ITALY
00:18:51.000                   : DENMARK
00:20:49.000                   : NETHERLANDS
00:23:14.000                   : UKRAINE
00:25:19.000                   : POLAND
00:27:10.000                   : ROMANIA
00:29:44.000                   : BELGIUM
00:31:06.000                   : CZECH REPUBLIC
00:34:05.000                   : PORTUGAL
00:37:57.000                   : SWEDEN
00:39:55.000                   : HUNGARY
00:42:55.000                   : ENGLAND
00:45:40.000                   : SERBIA
00:47:01.000                   : FINLAND
00:49:03.000                   : SLOVAKIA
00:50:52.000                   : NORWAY
00:52:32.000                   : CROATIA
00:53:59.000                   : ALBANIA

173701asz8kkkeleltsuyt.png.jpg 173730oy4y9zodllmvolil.png.jpg






歐洲巡演 8K 超高清TOUR AROUND EUROPE 8K ULTRA HD-12.2GB
阿里云盘下载

歐洲巡演 8K 超高清TOUR AROUND EUROPE 8K ULTRA HD-12.2GB.txt ( 168 Bytes )


登录 发布 快速回复 返回顶部 返回列表