开启辅助访问
 找回密码
 立即注册

壯觀的動物 8K 超高清 World's Largest Animals Collection 8K ULTRA HD-21.1GB

#8K视频#时间:2023-05-24 阅读:185 回复:0
174140n25lf85ext6p6kte.jpg.jpg

影片参数
General
Format                         : MPEG-4
Format profile                 : Base Media
Codec ID                       : isom (isom/iso2/mp41)
File size                      : 21.1 GiB
Duration                       : 1 h 42 min
Overall bit rate               : 29.4 Mb/s
Movie name                     : World's Largest Animals Collection 8K ULTRA HD
Performer                      : 8K VIDEOS ULTRA HD
Description                    : In this 8K ULTRA HD video you will see more than 1000 Animal Species with real nature sounds and also relaxing piano music. / This is one of the World's Largest Animals Collection in 8K ULTRA HD. / On our planet there are 8 million species of animals according to the latest estimate. / 85% of terrestrial animal species and 91% of marine species are yet to be discovered. / In total, 8.74 million species on Earth, plus almost 11,000 archaea and bacteria. / An annual list that since 2008 highlights the 10 most important species discovered in a year. The School of Environmental and Forest Sciences at the State University of New York is dedicated to choosing some of the most striking or the most unique of the 18,000 species that are discovered each year: microbes, plants and animals that have found a way to survive against all odds. Among them an organism discovered in an aquarium in San Diego, California, whose origin in a natural habitat is unknown. /  / 00:00 Intro 8K / 00:18 World's Largest Animals Collection Real Animals Sounds / 30:22 Animals and Birds 8K with Relaxing Music and Nature Sounds /  / Follow me: /  /  / Canon - Sony - Nikon - Adobe Premiere Pro CC - Photoshop - Lightroom CC / Youtube Business - Youtube Profit - Bank Credit - Loans - Educational - Education - Insurance /  / World's Largest Animals Collection 8K ULTRA HD (FUHD) Demo 8K ULTRA HD /  / #8K #ANIMALS #COLLECTION
Recorded date                  : 20220304
Writing application            : Lavf58.29.100
LongDescription                : In this 8K ULTRA HD video you will see more than 1000 Animal Species with real nature sounds and also relaxing piano music. / This is one of the World's Largest Animals Collection in 8K ULTRA HD. / On our planet there are 8 million species of animals according to the latest estimate. / 85% of terrestrial animal species and 91% of marine species are yet to be discovered. / In total, 8.74 million species on Earth, plus almost 11,000 archaea and bacteria. / An annual list that since 2008 highlights the 10 most important species discovered in a year. The School of Environmental and Forest Sciences at the State University of New York is dedicated to choosing some of the most striking or the most unique of the 18,000 species that are discovered each year: microbes, plants and animals that have found a way to survive against all odds. Among them an organism discovered in an aquarium in San Diego, California, whose origin in a natural habitat is unknown. /  / 00:00 Intro 8K / 00:18 World's Largest Animals Collection Real Animals Sounds / 30:22 Animals and Birds 8K with Relaxing Music and Nature Sounds /  / Follow me: / ►YouTube:  /  / Canon - Sony - Nikon - Adobe Premiere Pro CC - Photoshop - Lightroom CC / Youtube Business - Youtube Profit - Bank Credit - Loans - Educational - Education - Insurance /  / World's Largest Animals Collection 8K ULTRA HD (FUHD) Demo 8K ULTRA HD /  / #8K #ANIMALS #COLLECTION


Video
ID                             : 1
Format                         : AV1
Format/Info                    : AOMedia Video 1
Codec ID                       : av01
Duration                       : 1 h 42 min
Bit rate                       : 29.3 Mb/s
Width                          : 7 680 pixels
Height                         : 4 320 pixels
Display aspect ratio           : 16:9
Frame rate mode                : Constant
Frame rate                     : 30.000 FPS
Color space                    : YUV
Chroma subsampling             : 4:2:0
Bit depth                      : 8 bits
Bits/(Pixel*Frame)             : 0.029
Stream size                    : 21.0 GiB (100%)
Title                          : ISO Media file produced by Google Inc.
Color range                    : Limited
Color primaries                : BT.709
Transfer characteristics       : BT.709
Matrix coefficients            : BT.709
Menus                          : 3
Codec configuration box        : av1C

Audio
ID                             : 2
Format                         : AAC LC
Format/Info                    : Advanced Audio Codec Low Complexity
Codec ID                       : mp4a-40-2
Duration                       : 1 h 42 min
Bit rate mode                  : Constant
Bit rate                       : 128 kb/s
Channel(s)                     : 2 channels
Channel layout                 : L R
Sampling rate                  : 44.1 kHz
Frame rate                     : 43.066 FPS (1024 SPF)
Compression mode               : Lossy
Stream size                    : 94.2 MiB (0%)
Title                          : ISO Media file produced by Google Inc.
Language                       : English
Default                        : Yes
Alternate group                : 1
Menus                          : 3

Menu #1
ID                             : 3
Codec ID                       : text
Duration                       : 1 h 42 min
Language                       : English
Menu For                       : 1,2
Duration_FirstFrame            : -1786000
Duration_LastFrame             : 2546000
00:00:00.000                   : Intro 8K
00:00:18.000                   : World's Largest Animals Collection Real Animals Sounds
00:30:22.000                   : Animals and Birds 8K with Relaxing Music and Nature Sounds


Menu #2
00:00:00.000                   : Intro 8K
00:00:18.000                   : World's Largest Animals Collection Real Animals Sounds
00:30:22.000                   : Animals and Birds 8K with Relaxing Music and Nature Sounds

174303g9do0bnaqk0vxvzo.png.jpg 174325z8ssetg8bk8nttqw.png.jpg 174343g0d2f0ffdcy255ry.png.jpg





壯觀的動物 8K 超高清 World's Largest Animals Collection 8K ULTRA HD-21.1GB
阿里云盘

「壯觀的動物 8K 超高清 Wor...tion 8K ULTRA HD.mp4」.txt ( 166 Bytes )



登录 发布 快速回复 返回顶部 返回列表