开启辅助访问
 找回密码
 立即注册
短信情缘 豆瓣评分: 无评分 年份: 2023年 片长: 104 分钟 地区: 美国  类型: 喜剧  格式: 4K HDR  音轨: Dolby TrueHD 5.1  导演: 詹姆斯·C·斯特劳斯 主演: 佩丽冉卡·曹帕拉 / 萨姆·修汉 / 席琳·狄翁 / Sofia Barclay / 拉塞尔·托维
预告片欣赏
取消
简介 :

  讲述一个女人为了减轻未婚夫逝世的痛苦,开始给他的旧手机发送浪漫的短信,结果这个电话号码现在是同城的另一个男人在用,他也正在经历同样的心碎时刻。两人见面后,感觉到了不可否认的联系,但似乎无法将过去抛在脑后,乐坛天后席琳·迪翁的音乐和她的影响力给了他们再次尝试爱情的勇气。据悉,天后本人除了亲自参演之外,也担当了本片的制片人之一。

  • 电影下载
  • 资源INFO
  • 下载说明
  • 《短信情缘》4k电影 · 网盘/云盘/BT 下载  Cloud storage / Cloud disk / BT download

  • 《短信情缘》电影INFO  Video INFO
    Video
    ID : 1
    Format : HEVC
    Format/Info : High Efficiency Video Coding
    Format profile : Main 10@L5@High
    HDR format : Dolby Vision, Version 1.0, dvhe.08.06, BL+RPU, HDR10 compatible / SMPTE ST 2086, HDR10 compatible
    Codec ID : V_MPEGH/ISO/HEVC
    Duration : 1 h 44 min
    Bit rate : 24.3 Mb/s
    Width : 3 840 pixels
    Height : 2 072 pixels
    Display aspect ratio : 1.85:1
    Frame rate mode : Constant
    Frame rate : 23.976 (24000/1001) FPS
    Color space : YUV
    Chroma subsampling : 4:2:0 (Type 2)
    Bit depth : 10 bits
    Bits/(Pixel*Frame) : 0.127
    Stream size : 17.7 GiB (97%)
    Default : Yes
    Forced : No
    Color range : Limited
    Color primaries : BT.2020
    Transfer characteristics : PQ
    Matrix coefficients : BT.2020 non-constant
    Mastering display color primaries : BT.2020
    Mastering display luminance : min: 0.0050 cd/m2, max: 1000 cd/m2
    Maximum Content Light Level : 2108 cd/m2
    Maximum Frame-Average Light Level : 321 cd/m2

    Audio
    ID : 2
    Format : E-AC-3 JOC
    Format/Info : Enhanced AC-3 with Joint Object Coding
    Commercial name : Dolby Digital Plus with Dolby Atmos
    Codec ID : A_EAC3
    Duration : 1 h 44 min
    Bit rate mode : Constant
    Bit rate : 768 kb/s
    Channel(s) : 6 channels
    Channel layout : L R C LFE Ls Rs
    Sampling rate : 48.0 kHz
    Frame rate : 31.250 FPS (1536 SPF)
    Compression mode : Lossy
    Stream size : 573 MiB (3%)
    Language : English
    Service kind : Complete Main
    Default : Yes
    Forced : No
    Complexity index : 16
    Number of dynamic objects : 15
    Bed channel count : 1 channel
    Bed channel configuration : LFE

    Text #1
    ID : 3
    Format : UTF-8
    Codec ID : S_TEXT/UTF8
    Codec ID/Info : UTF-8 Plain Text
    Duration : 1 h 38 min
    Bit rate : 57 b/s
    Frame rate : 0.232 FPS
    Count of elements : 1374
    Stream size : 41.4 KiB (0%)
    Language : English (GB)
    Default : No
    Forced : No

    Text #2
    ID : 4
    Format : UTF-8
    Codec ID : S_TEXT/UTF8
    Codec ID/Info : UTF-8 Plain Text
    Duration : 1 h 38 min
    Bit rate : 57 b/s
    Frame rate : 0.232 FPS
    Count of elements : 1374
    Stream size : 41.4 KiB (0%)
    Language : English (US)
    Default : No
    Forced : No

    Text #3
    ID : 5
    Format : UTF-8
    Codec ID : S_TEXT/UTF8
    Codec ID/Info : UTF-8 Plain Text
    Duration : 1 h 43 min
    Bit rate : 51 b/s
    Frame rate : 0.222 FPS
    Count of elements : 1380
    Stream size : 39.1 KiB (0%)
    Language : French (FR)
    Default : No
    Forced : No

    Text #4
    ID : 6
    Format : UTF-8
    Codec ID : S_TEXT/UTF8
    Codec ID/Info : UTF-8 Plain Text
    Duration : 1 h 42 min
    Bit rate : 51 b/s
    Frame rate : 0.239 FPS
    Count of elements : 1474
    Stream size : 38.5 KiB (0%)
    Language : Indonesian
    Default : No
    Forced : No

    Menu
    00:00:00.000 : en:Chapter 01
    00:06:14.499 : en:Chapter 02
    00:14:32.664 : en:Chapter 03
    00:20:17.092 : en:Chapter 04
    00:27:15.468 : en:Chapter 05
    00:32:32.744 : en:Chapter 06
    00:38:09.414 : en:Chapter 07
    00:46:44.763 : en:Chapter 08
    00:52:44.122 : en:Chapter 09
    01:01:41.868 : en:Chapter 10
    01:07:08.653 : en:Chapter 11
    01:13:06.094 : en:Chapter 12
    01:19:14.212 : en:Chapter 13
    01:27:04.057 : en:Chapter 14
    01:32:02.313 : en:Chapter 15
    01:37:46.825 : en:Chapter 16



    《短信情缘》4k电影 · 网盘/云盘/BT 下载  Cloud storage / Cloud disk / BT download
  • 下载本版资源三步骤
    1、在《4K电影列表》找到并打开电影下载页,点击下载框按钮或复制磁力链,将BT种子下载到电脑中。
    2、电脑安装《BT下载软件》,免费的推荐使用《UTorrent》下载,收费的推荐使用《115网盘》下载(速度又快又稳).
    3、用BT下载软件,打开BT种子、或将磁力链复制粘贴到BT软件中即可下载。


    下载速度慢怎么办
    1、正常情况使用《UTorrent》跟着网站发布资源节奏下载速度很快,可以达到宽带最大速度(电信)
    2、推荐使用《115网盘》下载速度又快又稳定,请勿使用迅雷下载;
    3、下载慢是有多方面原因,即依赖种子的热度、也要求是电信宽带(非移动/联通),同时选择对的下载软件和软件设置方法。
    4、使用BT协议下载没有速度,请更新《Trackers服务器》能够增加在线用户(越多越好),该方法使用《UTorrent》下载效果显著。
    更多下载问题参考: 4K电影下载新手学院>>

    多个种子/电影版本区别
    蓝光原盘BDMV
    俗称4K蓝光原盘,也就是从4K UHD蓝光碟中提取出来的源文件,由多个m2ts文件组成,与正版盘完全一致,且包含了光盘所有内容 (影片花絮、字幕、导航菜单、多语言多音轨、HDR 信息)等等,文件体积大,一部电影约有60GB+。此版本资源一般以「BDMV 文件夹」或「BDISO」 (iso) 格式发布;该版本可以用刻录机成带导航的光盘效果。

    DIY蓝光原盘BDMV
    经资源制作组基于蓝光原盘BDMV版本进行第二次DIY的版本,将片头AE特效、画面HDR调色、封装国语音轨、封装中文简体/繁体/英文等多语言字幕,更精彩的是是特效字幕(将电影画面中某些细节翻译成中文字幕)。

    蓝光BD-REMUX
    俗称REMUX,可以视为「音画质无损的精简版」"4K原盘",它其实就是将原盘里多余的一些音轨、花絮、菜单、字幕等东西移除或精简,仅保留主要的视频、主要音轨和部分语言字幕,然后再封装成「单个文件」的 .mkv 格式而来,其音质画质与BDMV蓝光原盘一致,但文件体积上能大幅缩减且成单个文件,在电脑上播放/管理/电视播放/播放器播放和分享起来也更方便。适合追求原盘音画质、不重视花絮周边内容、又希望稍微节省点硬盘空间的朋友。

    WEB-DL/WEBRip/流媒体版本
    WEB-DL 或 WEBRip 格式的影片主要来自 、Amazon Prime Video、Netflix、Hulu、YouTube 等「在线网络高清片源」。尽管这些服务提供了4K分辨率 (部分含 HDR) 的片源,但它们为了在线观看的流畅性,都会将视频画质进行较大幅度「有损压缩」。 WEB-DL 是 Web Download 的意思,指通过技术手段「直接下载」回来的在线视频 WEBRip 很多时候则是通过"屏幕转录"等方式二次录制,会造成多一次的画质损失。



    《短信情缘》4k电影 · 网盘/云盘/BT 下载  Cloud storage / Cloud disk / BT download
重新再爱 / 寄往天堂的情书(台) / 缘来可以爱多次(港) /短信情缘4K It’s All Coming Back to Me/Love.Again.2023.2160p.WEB-DL.x265.10bit.HDR.DDP5.1.Atmos.x265-4k电影下载

短信情缘4K Love.Again.2023.2160p.WEB-DL.DDP5.1.Atmos.DV.MP4.x265【杜比视界】【18.40 GB】

Love.Again.2023.2160p.WEB-DL.x265.10bit.HDR.DDP5.1.Atmos.x265-APEX.torrent ( 23.49 KB )


短信情缘4K Love.Again.2023.2160p.WEB-DL.DDP5.1.Atmos.DV.MKV.x265【杜比视界】【18.40 GB】

Love.Again.2023.2160p.WEB-DL.DDP5.1.Atmos.DV.MKV.x265-APEX.torrent ( 23.75 KB )


短信情缘4K It’s All Coming Back to Me/Love.Again.2023.2160p.WEB-DL.x265.10bit.HDR.DDP5.1.Atmos.x265【HDR 18.28 GB】

Love.Again.2023.2160p.WEB-DL.DDP5.1.Atmos.DV.MP4.x265-DVSUX.torrent ( 23.36 KB )




最新回复
还没人回复...
登录 发布 快速回复 返回顶部 返回列表